Screen

Profile

Direction

Menu Style

Cpanel

Les amis du Cameroun

Les amis du Cameroun

English (United Kingdom)
Welcome, Guest

Merlin Season 5 HDTV XviD - amaanu01
(1 viewing) (1) Guest
Aenean at vel interdum nunc elit lorem id nulla nunc Proin. A. Semper accumsan Integer nisl Pellentesque In id metus laoreet dignissim vel.
  • Page:
  • 1

TOPIC: Merlin Season 5 HDTV XviD - amaanu01

Merlin Season 5 HDTV XviD - amaanu01 7 months, 2 weeks ago #2185

  • backpobi
Merlin Season 5 HDTV XviD - amaanu01
Category: TV
SIZE: 5.07 <span>GB</span>



_____________________________
Description
-----------------------------

<div class="center"><img alt="image" data-original="static3.wikia.nocookie.net/__cb201209081...ape_Poster.jpg" src="//kastatic.com/images/blank.gif" class="lazyjs" /><br />
<br />
<img alt="image" src="//yuq.me/users/25/051/AYpC7813ub.png" /><br />
<br />
After three years of peace and harmony, Camelot's future couldn't be brighter. But as King Arthur, his new Queen Guinevere, and, of course, his faithful servant, Merlin, look set to bring the kingdom into a Golden Age, the seeds of Camelot's destruction are being sown as the sorceress Morgana is ever plotting Arthur's downfall.<br />
As an old face returns to the castle and gains a position amongst the king's inner circle, Merlin must be on guard more than ever. For the new arrival is Mordred, the druid boy whose destiny it is to end the king's life and bring chaos to Camelot. But as the death song of King Uther haunts the castle and Guinevere crosses over to the dark side, both Merlin and Arthur find that their destinies are approaching. The battle of Camelot is about to reach a deadly conclusion and nothing will ever be the same again.<br />
<br />
<img alt="image" src="//yuq.me/users/25/051/f9WMh6opU2.png" /><br />
<br />
<a href="www.imdb.com/title/tt1199099/" rel="nofollow">www.imdb.com/title/tt1199099/</a><br />
<br />
<img alt="image" src="//yuq.me/users/25/051/LogPX31IV4.png" /><br />
<br />
All episodes in XviD from HDTV<br />
<br />
Codec ID, Format: XVID, MPEG-4<br />
Aspect ratio, Dimension: 16:9, 720x404<br />
Audio: MP3, 2 Channels<br />
<br />
<br />
-----------------------------------------------------------------------------------<br />
<br />
<br />
Episode 1 example:<br />
<br />
General<br />
Complete name : Merlin 5x01 - Arthur's Bane (Part 1) HDTV.avi<br />
Format : AVI<br />
Format/Info : Audio Video Interleave<br />
File size : 408 MiB<br />
Duration : 42mn 38s<br />
Overall bit rate mode : Variable<br />
Overall bit rate : 1 337 Kbps<br />
Writing application : MEncoder r33883<br />
Writing library : MPlayer<br />
<br />
Video<img alt="image" src="//yuq.me/users/25/051/4fDtaszojl.png" /><br />
ID : 0<br />
Format : MPEG-4 Visual<br />
Format profile : Simple@L3<br />
Format settings, BVOP : No<br />
Format settings, QPel : No<br />
Format settings, GMC : No warppoints<br />
Format settings, Matrix : Default (H.263)<br />
Codec ID : XVID<br />
Codec ID/Hint : XviD<br />
Duration : 42mn 38s<br />
Bit rate : 1 200 Kbps<br />
Width : 720 pixels<br />
Height : 404 pixels<br />
Display aspect ratio : 16:9<br />
Frame rate : 25.000 fps<br />
Color space : YUV<br />
Chroma subsampling : 4:2:0<br />
Bit depth : 8 bits<br />
Scan type : Progressive<br />
Compression mode : Lossy<br />
Bits/(Pixel*Frame) : 0.165<br />
Stream size : 366 MiB (90%)<br />
Writing library : XviD 63<br />
<br />
Audio<img alt="image" src="//yuq.me/users/25/051/Tt5Dlz0Vkq.png" /><br />
ID : 1<br />
Format : MPEG Audio<br />
Format version : Version 1<br />
Format profile : Layer 3<br />
Mode : Joint stereo<br />
Mode extension : MS Stereo<br />
Codec ID : 55<br />
Codec ID/Hint : MP3<br />
Duration : 42mn 38s<br />
Bit rate mode : Variable<br />
Bit rate : 124 Kbps<br />
Channel(s) : 2 channels<br />
Sampling rate : 48.0 KHz<br />
Compression mode : Lossy<br />
Stream size : 37.9 MiB (9%)<br />
Alignment : Aligned on interleaves<br />
Interleave, duration : 24 ms (0.60 video frame)<br />
Interleave, preload duration : 498 ms<br />
<br />

_____________________________
Comments
-----------------------------

_____________________________
Tags
-----------------------------
TELEFILM DOWNLOAD 2: MERLIN - (Stagione 5 )… Translate this page tfdownload2.blogspot.commerlin -stagione- 5 - hdtv -sub-ita.html 8 · Nel secondo episodio della quinta stagione di " Merlin ", circa al minuto 07'10" sparisce il video (schermo bianco), pur mantenendo l'audio ed i sottotitoli merlin torrent - Torrentz torrentz.eumerlin © 2003-2014 Torrentz 0.010s Merlin (TV Series 2008– ) - IMDb With John Hurt, Colin Morgan, Bradley James, Richard Wilson. Young Merlin is a teenager, discovering and then learning to master his magical gift. Magister Gaius OneDDL We would like to show you a description here but the site won’t allow us. LinxDown Categories: Browse Categories Here.. Categories includes posts with content related to movies, apps, free games, ebooks, magazines, etc etc. browse and download free Uploading.com - the simplest and secure way to host your uploading.com Hello, Uploading.com will be performing a service upgrade on Wednesday, September 5th, for about 45 minutes. We are conducting this upgrade to perform… VinePile vinepile.com High School Prom Stripper Performer Gets X-Rated (Uncensored) Watch till the end. V 2. sezon izle, V 2. sezon son bölüm, V … Translate this page diziport.comv _2_sezon-izle V 2. sezon izle, V s02, V s02 HDTV XviD -FQM, V s02 HD , V s02 DVDRip, V s02 download, V season 02 complete uploaded.net uploaded.net No-registration upload of files up to 250MB. Not available in some countries. Megashares - Drag. Drop. Yup. The first site to provide megashares.com How Does Megashares Work? Select the file or files you wish to upload. Choose the options best suited for your upload (password protect, description, email notification) Pagination 1 2 3 4 Next
cde::cde


majhoulart.com/2014/02/04/download-googl...h-app-for-nokia-n73/
majhoulart.com/2014/02/08/psp-kingdom-he...h-by-sleep-full-iso/
www.kingdomlifevisioncenterofdestin.com/...schko-hdtv-xvid-dms/
www.kingdomlifevisioncenterofdestin.com/...or-blackberry-phone/
bestdownloadyoutubevideoschromeextension.pen.io/
download youtube videos mac safari 5.0.6
mig - 15 jet fighter
Ancient Greek, introduction (Attic)
The Secret Life of the American Teenager S05E16 HDTV x264-ASAP
minecraft pocket edition full apk download
stockholm4u.ru/index.php?option=com_kune...mp;Itemid=295#338093
www.xn--80aaudcc2ah7cza4h.xn--p1ai/index...dpress-themes#144084
www.happytokorea.com/board/index.php?opt...6&Itemid=3#47286
on-kino.org/index/8-11226
teplo-holod.com.ua/Forum/vybor-konditsio...nothing-happens#7602
  • Page:
  • 1
Time to create page: 0.44 seconds
leftLorem ipsum dolor sit amet, consectetur adipisicing elit, sed do eiusmod tempor incididunt ut labore et dolore magna aliqua. Ut enim ad minim veniam, quis nostrud exercitation ullamco laboris nisi ut aliquip ex ea commodo consequat.

Newsletter